#TITLE:One More Lovely;
#SUBTITLE:;
#ARTIST:Risk Junk;
#TITLETRANSLIT:;
#SUBTITLETRANSLIT:;
#ARTISTTRANSLIT:;
#CREDIT:;
#BANNER:OneMoreLovelyBNR.PNG;
#BACKGROUND:OneMoreLovelyBG.PNG;
#LYRICSPATH:;
#CDTITLE:!eggmanTitle.png;
#MUSIC:One_More_Lovely.mp3;
#OFFSET:-1.260;
#SAMPLESTART:29.999;
#SAMPLELENGTH:12.000;
#SELECTABLE:YES;
#BPMS:0.000=200.000;
#STOPS:;
#BGCHANGES:;
// cache tags:
#FIRSTBEAT:2.000;
#LASTBEAT:353.750;
#SONGFILENAME:Songs/Music V.I.P ^_^/One More Lovely/OneMoreLovely.sm;
#HASMUSIC:1;
#HASBANNER:1;
#MUSICLENGTH:112.724;
// end cache tags

//---------------dance-single - ----------------
#NOTES:
     dance-single:
     :
     Hard:
     13:
     1.000,1.000,0.754,0.000,1.000,1092.000,85.000,0.000,0.000,0.000:
0000
0000
0000
0000
0000
0000
0000
0000
1000
0001
1000
0000
1001
0000
0000
0000
,
1001
0001
1000
0010
1010
0100
0101
0001
,
1000
0100
1000
0100
1100
0010
0011
0001
,
1000
0010
1000
0010
1010
0100
0110
0100
,
0101
0001
1001
1000
1100
0100
0110
0010
,
0011
0001
1000
0010
1010
0100
0110
0100
,
0001
1000
0100
1000
1100
0010
0110
0001
,
0100
0010
0100
0001
0101
0001
0101
1001
,
0000
0000
0001
0000
1000
0000
1000
0000
0100
0010
0001
1000
0010
0000
0100
0010
,
1000
0100
0010
0001
1000
0010
0100
0001
1000
0100
0010
0001
1000
0010
0100
0001
,
1000
0100
0010
0001
1000
0010
0100
0001
1000
0100
0010
0001
1000
0010
0100
0001
,
1000
0010
0100
0001
1000
0100
0010
0001
1000
0010
0100
0001
1000
0100
0010
0001
,
1000
0100
0010
0001
1000
0100
0010
0001
1000
0100
0010
0001
1000
0100
0010
0001
,
1000
0010
1000
0001
0010
0001
1000
0100
1000
0001
0100
0001
1000
0010
1000
0001
,
0100
0010
1000
0100
0010
0100
1000
0010
0100
0001
1000
0100
1000
0010
1000
0001
,
0010
0001
0100
0001
1000
0100
0010
0001
1000
0010
0100
0001
1000
0100
0010
0100
,
1000
0100
0010
0001
1000
0100
0010
0001
1000
0100
0010
0001
1000
0100
0010
0001
,
1000
0010
0100
0001
1000
0010
0100
0001
1000
0010
0100
0001
1000
0010
0100
0001
,
1001
1000
1010
1000
1001
1000
1100
1000
,
1001
0001
0101
0001
0011
0001
1001
0001
,
0001
0100
0010
1000
0001
0100
0010
1000
0001
0100
0010
1000
0001
0100
0010
1000
,
0100
0010
0100
1000
0010
0100
0001
0010
0001
0100
0001
1000
0100
0010
0100
0010
,
0001
1000
0010
0100
0010
1000
0100
0010
0001
0100
0010
0100
0001
0100
0010
1000
,
0010
1000
0100
1000
0001
0100
0010
0100
0001
0010
0001
0100
0010
0100
0010
1000
,
0100
0010
0001
1000
0010
0100
0001
1000
0100
0010
0100
1000
0010
0100
0010
0100
,
0001
1000
0100
0010
0001
1000
0001
0100
0010
0100
0001
1000
0100
0010
0100
1000
,
0001
0100
0010
1000
0010
0100
0001
1000
0100
0010
0001
0010
0100
1000
0010
0100
,
0001
1000
0100
0010
0001
1000
0010
0100
0010
0100
0010
0100
0001
1000
0001
1000
,
0010
0000
0000
0100
,
0001
1000
0100
0010
,
0001
0000
0000
1000
,
0010
0100
0010
1000
,
0100
0000
0000
0010
,
0001
1000
0010
0100
,
0010
0000
0000
1000
,
0100
0010
0000
0001
0000
1000
0000
0000
,
1001
0000
0000
0000
0000
0000
0000
0000
1000
0001
1000
0000
1001
0000
0000
0000
,
1000
0100
0010
0100
1000
0001
0100
0010
0100
0001
1000
0001
0100
0010
1000
0100
,
0010
0001
1000
0001
1000
0100
0010
0001
0100
0010
1000
0001
0100
0010
1000
0001
,
1000
0100
0010
0100
1000
0100
0010
0001
0100
0010
1000
0001
0100
0010
0100
0001
,
1000
0010
1000
0100
1000
0010
0100
0001
0010
0001
0100
0010
1000
0001
1000
0100
,
0010
0100
1000
0010
0100
0001
1000
0100
0010
0100
1000
0001
0100
0010
0100
0001
,
1000
0010
0100
0010
1000
0001
0010
0001
0100
0001
1000
0010
1000
0100
0010
0100
,
1000
0001
0100
0010
0100
0001
1000
0100
0010
0001
0100
0010
0100
0010
1000
0001
,
0100
0010
1000
0100
0010
0001
1000
0010
0100
0010
1000
0100
0010
0001
1000
0001
,
0100
0010
1000
0001
0100
0010
1000
0100
0010
0001
1000
0100
0010
0001
1000
0001
,
0100
0010
1000
0001
0100
0010
1000
0100
0010
0100
1000
0001
1000
0100
0010
0100
,
1000
0001
0100
0010
0100
0010
0100
0001
1000
0001
0100
0001
1000
0100
1000
0010
,
1000
0100
0010
0001
1000
0010
0100
0001
1000
0001
0100
0010
1000
0100
0010
0100
,
1000
0010
0100
0001
0010
0100
0010
0001
1000
0001
0100
0010
0100
0010
1000
0100
,
0010
0100
0010
0001
1000
0001
0100
0010
1000
0001
1000
0100
0010
0001
1000
0001
,
0100
0010
1000
0100
0010
0100
1000
0001
0100
0010
0100
0001
1000
0001
0100
0010
,
1000
0100
0010
0001
1000
0100
0010
0001
0010
0100
1000
0001
0010
0100
1000
0001
,
1001
0001
0101
0010
1010
1000
1100
0010
,
0001
0100
0101
0100
1010
1000
1100
0010
,
0001
1000
1001
0001
0101
0010
1010
0110
,
0100
0101
1001
1000
1100
0011
1100
1001
,
1000
0100
1100
0010
0011
0001
1001
1000
,
0010
0100
0110
0100
0101
0001
1001
0110
,
0100
0101
1001
1000
1100
0010
0011
0001
,
1001
0000
1000
0000
1100
0000
0010
0000
0001
0010
0100
1000
0010
0100
0001
1000
,
0100
0010
0001
1000
0010
0100
0001
1000
0100
0010
0001
1000
0100
0010
0001
1000
,
0010
0100
0010
1000
0001
0100
0010
1000
0100
0010
0001
1000
0001
0100
0010
0100
,
0001
1000
0100
0010
0001
0010
0100
0010
0001
1000
0010
0100
0010
0100
0001
1000
,
0100
1000
0010
1000
0001
0010
0001
0100
0010
1000
0100
0010
0001
1000
0010
0100
,
0001
1000
0100
0010
0100
1000
0010
0100
0001
1000
0001
0100
0010
1000
0100
0010
,
0001
1000
0010
0100
0001
1000
0001
0100
0010
1000
0100
1000
0100
0010
0001
0010
,
0001
0100
0001
0100
0010
1000
0010
1000
0001
1000
0001
0100
0010
0100
0010
1000
,
0100
0010
0001
1000
0010
0100
0001
1000
0001
0100
0010
1000
0001
0100
0010
1000
,
0010
0100
0101
0001
1001
1000
1100
0010
,
0011
0001
1001
1000
1010
0100
0101
0001
,
0011
0100
0011
0010
1100
0010
1100
1000
,
1001
0000
0000
0000
0000
0000
0000
0000
0000
0000
0000
0000
0000
0000
0000
0000
0000
0000
0000
0000
0000
0000
0000
0000
0010
0000
0000
0000
0000
0000
0000
0000
0000
0000
0000
0000
0000
0000
0000
0000
0000
0000
0000
0000
0000
0000
0000
0000
1001
0000
0000
0000
0000
0000
0000
0000
0000
0000
0000
0000
0000
0000
0000
0000
0000
0000
0000
0000
0000
0000
0000
0000
1000
0000
0000
0000
0000
0000
0000
0000
0000
0000
0000
0000
0000
0000
0000
0000
0000
0000
0000
0000
0000
0000
0000
0000
1100
0000
0000
0000
0000
0000
0000
0000
0000
0000
0000
0000
0000
0000
0000
0000
0000
0000
0000
0000
0000
0000
0000
0000
0010
0000
0000
0000
0000
0000
0000
0000
0000
0000
0000
0000
0000
0000
0000
0000
0000
0000
0000
0000
0000
0000
0000
0000
0001
0000
0000
0000
0000
0000
0000
0000
0000
0000
0000
0000
0000
0000
0000
0000
0010
0000
0000
0000
0000
0000
0000
0000
0100
0000
0000
0000
0000
0000
1000
0000
0000
0000
0000
0000
0000
0000
0000
0000
0000
0000
0000
0000
0000
0000
0000
0000
,
0010
0100
0101
0001
1001
1000
1100
0010
,
0011
0001
0101
0010
1010
1000
1001
0001
,
0101
0100
0110
0010
1010
1000
1001
0001
,
0100
0000
0010
0000
1000
0000
0100
0000
0010
0001
0100
0010
1000
0000
0001
1000
,
0100
0010
0001
1000
0010
0100
0010
1000
0001
0100
0010
1000
0100
0010
0001
1000
,
0010
0100
0010
1000
0001
0100
0010
0100
0001
1000
0100
0010
0100
1000
0001
0100
,
0010
1000
0001
0100
0001
1000
0010
1000
0001
0100
0010
0100
0001
1000
0100
0010
,
0100
1000
0010
0100
0001
1000
0100
0010
0001
1000
0001
0100
0010
1000
0001
0100
,
0010
1000
0100
0010
0001
1000
0100
0010
0001
0100
0001
0100
0010
1000
0010
1000
,
0001
1000
0001
0100
0010
1000
0100
0010
0100
1000
0001
0100
0010
0100
0001
1000
,
0100
0010
0001
0010
0100
1000
0001
0100
0010
0100
0001
1000
0100
0010
0100
1000
,
0010
0100
0001
0100
0010
1000
0010
1000
0100
0010
0100
0010
0001
1000
0010
0100
,
0001
1000
0100
0010
0100
1000
0010
0100
0001
1000
0100
0010
0001
1000
0010
0100
,
0001
1000
0100
0010
0100
1000
0010
0100
0001
0010
0001
1000
0100
1000
0010
0100
,
0001
0010
0100
0010
0001
1000
0100
0010
0100
1000
0010
0100
0001
0010
0100
0010
,
0001
0100
0010
1000
0010
0100
0001
1000
0000
0000
0000
0000
0000
0000
0000
0000
;

//---------------dance-single - ----------------
#NOTES:
     dance-single:
     :
     Medium:
     9:
     0.822,1.000,1.000,0.018,0.058,524.000,123.000,2.000,0.000,0.000:
0000
0000
0000
0000
0010
0010
0010
0000
,
1001
0000
0000
0001
1000
0100
0010
0100
,
0000
0001
0000
0001
1000
0100
0010
0100
,
0000
0001
0000
0001
1000
0100
0010
0100
,
0001
0001
0010
0010
0100
0100
0010
0010
,
0011
0001
0000
0001
1000
0100
0010
0100
,
0000
0001
0000
0001
1000
0100
0010
0100
,
0000
0001
0000
0001
1000
0100
0010
0001
,
0000
0001
0010
0010
0100
0100
0001
0001
,
1001
0001
0000
0001
1000
0100
0010
0100
,
0000
0001
0000
0001
1000
0100
0010
0100
,
0000
0001
0000
0001
1000
0100
0010
0100
,
0001
0001
0010
0010
0100
0100
0010
0010
,
0011
0001
0000
0001
1000
0100
0010
0100
,
0000
0001
0000
0001
1000
0100
0010
0100
,
0000
0001
0000
0001
1000
0100
0010
0100
,
0001
0010
0100
1000
,
0001
0010
0100
1000
,
0011
1100
0101
1010
,
1010
0110
0011
1010
,
1001
0001
1000
0010
0100
0001
1000
0010
,
1000
0100
0010
0001
1000
0100
0010
0001
,
0100
0010
1000
0001
0100
0010
1000
0001
,
0001
0100
0010
1000
0001
0100
0010
1000
,
0001
0010
0100
0010
0001
0010
0100
0010
,
0001
0100
1000
0100
0001
0100
1000
0100
,
0010
1000
0001
0100
0010
1000
0001
0100
,
0010
0100
0001
0100
0010
1000
0010
0100
,
0001
0000
0000
0001
,
0010
0100
1000
0100
,
0010
0000
0000
0010
,
0001
0010
0100
0010
,
1000
0000
0000
1000
,
0001
0010
0100
0010
,
1000
0000
0000
0100
,
0010
0100
0000
1000
0000
0100
0000
0000
,
0010
0000
0000
0000
0100
0100
0100
0000
,
0101
0001
0010
0100
1000
0010
0100
0001
,
1000
0100
0010
0001
0100
0010
1000
0100
,
1000
0010
0100
0010
1000
0100
0010
0001
,
0010
0100
1000
0001
0010
0100
1000
0010
,
0100
0001
0100
0010
1000
0100
0010
0001
,
0100
0010
1000
0001
0010
0001
1000
0010
,
0100
0010
1000
0001
0100
0001
0010
0100
,
1000
0001
0100
0010
1000
0100
0010
0001
,
1001
1000
0010
0100
0001
0010
0011
0000
,
0101
0110
1100
1010
,
0110
0100
1000
0100
0010
0100
1100
0000
,
0101
0110
1010
0101
,
1100
1000
0010
1000
0001
0100
0110
0000
,
0011
1010
1100
0101
,
1010
1000
0001
0100
0001
0010
0110
0000
,
0010
1010
0000
1100
0000
1010
0000
0000
,
0110
1010
0101
1010
,
0010
1100
0011
1100
,
0100
0000
1001
0000
0110
0000
1001
0001
,
0000
0001
0011
0000
0110
0100
0000
1100
,
1000
1010
0101
1010
,
0100
0000
0110
0000
1001
0000
0110
0010
,
0000
0010
1010
0000
0101
0000
0110
0000
,
0011
0101
0110
1010
,
1001
0001
0100
0001
1000
0010
1000
0100
,
0010
0001
1000
0100
1000
0001
0100
0010
,
0100
0001
1000
0100
0010
0001
0010
0011
,
0000
0110
0010
0000
0110
0100
0000
1100
,
1000
0001
0100
0010
1000
0100
0010
0001
,
0010
0100
1000
0010
0100
0010
1000
0001
,
1000
0010
0100
0001
1000
0001
0100
0010
,
1000
0100
0010
0001
1000
0010
0100
0001
,
0101
1100
0110
0011
,
0110
1100
1010
0110
,
1100
1100
0011
0011
,
0110
0000
0000
0110
0000
0000
1100
0000
0000
0010
0001
0010
,
0200
0000
0000
0300
2000
0000
0000
3000
,
0011
0101
0110
1010
,
1100
0011
1100
0101
,
0011
1010
0110
1100
,
1001
1000
0001
0100
0010
1000
1100
0000
,
0011
1010
1100
0110
,
0101
0001
0010
0100
1000
0010
0110
0000
,
0011
1010
1100
0011
,
1010
0010
1000
0001
0010
0100
1100
0000
,
0011
0110
1010
0011
,
1100
0100
1000
0010
0100
0001
0011
0000
,
0010
0110
0000
1100
0000
0110
0000
0000
,
0010
0110
0000
1100
0000
0110
0000
0000
,
0001
1000
0001
1000
1001
0001
1001
1000
,
0001
1000
0001
1000
0001
1000
0001
1000
0001
1000
0001
1000
0001
1000
0001
1000
,
0001
1000
0010
0100
0010
0100
0001
0000
0000
0000
0000
0000
0000
0000
0000
0000
;

//---------------dance-single - ----------------
#NOTES:
     dance-single:
     :
     Beginner:
     3:
     0.212,0.392,0.133,0.009,0.000,151.000,15.000,1.000,0.000,0.000:
0000
0000
0000
0000
,
0001
0000
0100
0000
,
0010
0000
1000
0000
,
0100
0000
0010
0000
,
0001
0000
0100
0000
,
1001
0000
0010
0000
,
0100
0000
0001
0000
,
1000
0000
0010
0000
,
0000
0000
0000
0000
,
1001
0000
0001
0000
,
1000
0000
0010
0000
,
0100
0000
0001
0000
,
1000
0000
0001
0000
,
0100
0000
0010
0000
,
1000
0000
0100
0000
,
0010
0000
0001
0000
,
0100
0000
0010
0000
,
1000
0000
0001
0000
,
0110
0000
0110
0000
,
0110
0000
0110
0000
,
1001
0000
0000
0000
,
0010
0000
0000
0000
,
1000
0000
0000
0000
,
0001
0000
0000
0000
,
0100
0000
0000
0000
,
0010
0000
0000
0000
,
1000
0000
0000
0000
,
0001
0000
0000
0000
,
0100
0000
0000
0000
,
0001
0000
1000
0000
,
0010
0000
0000
0000
,
0100
0000
0001
0000
,
0010
0000
0000
0000
,
0010
0000
1000
0000
,
0100
0000
0000
0000
,
0001
0000
0100
0000
,
0000
0000
0100
0000
,
1001
0000
0100
0000
,
0010
0000
1000
0000
,
0001
0000
0100
0000
,
0001
0000
1000
0000
,
0100
0000
0010
0000
,
0001
0000
0100
0000
,
0010
0000
1000
0000
,
0001
0000
0100
0000
,
0001
0000
0000
0000
,
0100
0000
0010
0000
,
0001
0000
0000
0000
,
0010
0000
1000
0000
,
0010
0000
0000
0000
,
0001
0000
0010
0000
,
0100
0000
0000
0000
,
0010
0000
0100
0000
,
0001
0001
0001
0000
,
0000
1000
1000
0000
,
0000
0010
0010
0000
,
0000
0100
0100
0000
,
0000
0010
0010
0000
,
0000
0001
0001
0000
,
0000
1000
1000
0000
,
0000
0010
0010
0000
,
1000
1000
1000
0000
,
0000
0001
0001
0000
,
0000
0100
0100
0000
,
0000
0001
0001
0000
,
0000
0010
0010
0000
,
0000
1000
1000
0000
,
0000
0100
0100
0000
,
0000
0010
0010
0000
,
1001
0000
0010
0000
,
0100
0000
0001
0000
,
1000
0000
0100
0000
,
0010
0000
0001
0000
,
0100
0000
0010
0000
,
1000
0000
0001
0000
,
0100
0000
0001
0000
,
1000
0000
0010
0000
,
1001
0000
0000
0000
,
0010
0000
1000
0000
,
0001
0000
0000
0000
,
0100
0000
0001
0000
,
0010
0000
0000
0000
,
0100
0000
0010
0000
,
1000
0000
0000
0000
,
0101
0000
0000
0000
,
1010
0000
0000
0000
,
0011
0000
1100
0000
,
0002
0000
0000
0000
,
0003
0000
0000
1001
0000
0000
0000
0000
;

//---------------dance-single - ----------------
#NOTES:
     dance-single:
     :
     Easy:
     6:
     0.430,0.510,0.098,0.018,0.000,326.000,11.000,2.000,0.000,0.000:
0000
0000
0010
0010
,
1001
0000
0000
0000
0100
0000
0001
1000
,
0000
0100
0000
0000
0100
0000
0001
1000
,
0000
0100
0000
0000
0100
0000
0001
1000
,
0001
0010
0100
0010
,
1001
0000
0000
0000
0100
0000
0001
1000
,
0000
0100
0000
0000
0100
0000
0001
1000
,
0000
0100
0000
0000
0100
0000
0010
0001
,
0000
0010
0100
0010
,
1001
0000
0000
0000
0010
0000
0100
0001
,
0000
0010
0000
0000
0001
0000
1000
0100
,
0000
0001
0000
0000
0100
0000
0001
0010
,
0001
0010
0100
1000
,
1001
0000
0000
0000
0010
0000
0100
0010
,
0000
1000
0000
0000
0100
0000
0010
0100
,
0000
0010
0000
0000
1000
0000
0010
0100
,
0001
0010
0100
1000
,
0001
0010
0100
1000
,
0001
1000
0010
0100
,
0100
0010
0001
1000
,
1001
0001
0001
0001
,
1000
1000
1000
1000
,
0010
0010
0010
0010
,
0100
0100
0100
0100
,
0001
0001
0001
0001
,
0010
0010
0010
0010
,
0100
0100
0100
0100
,
1000
1000
1000
1000
,
0001
0000
0000
0001
,
0010
0100
1000
0100
,
0010
0000
0000
0010
,
0001
0010
0100
0010
,
1000
0000
0000
1000
,
0001
0010
0100
0010
,
1000
0000
0000
0100
,
0010
0100
0000
1000
0000
0100
0000
0000
,
0010
0000
0100
0100
,
1001
0001
0010
0100
,
1000
0010
0100
0001
,
0100
0010
1000
0100
,
0010
0001
0100
0010
,
1000
0100
1000
0001
,
0010
0001
0100
0010
,
1000
0010
0100
0001
,
1000
0100
0010
0001
,
0011
0000
0000
0001
,
0010
0100
1000
0100
,
0010
0000
0000
0010
,
0001
0010
0100
0010
,
1000
0000
0000
1000
,
0001
0010
0100
0010
,
1000
0000
0000
0100
,
0010
0100
0000
1000
0000
0100
0000
0000
,
1001
0010
0001
0010
,
0000
0100
0010
0100
,
0000
0000
1000
0000
0100
0000
1000
0001
,
0000
0001
0010
0000
0010
0100
0000
0100
,
1000
0010
1000
0010
,
0000
0000
0100
0000
0001
0000
0100
0001
,
0000
0001
0010
0000
0100
0000
1000
0000
,
0001
0100
0010
1000
,
1001
0001
0010
0001
,
0000
0010
0100
0010
,
0000
0000
0100
0000
1000
0000
0010
1000
,
0000
1000
0100
0000
0100
0010
0000
0010
,
0001
0100
0010
0100
,
0000
0001
0100
0001
,
0000
1000
0100
1000
,
0000
0001
1000
0001
,
0001
1000
0100
0001
,
0010
1000
0100
0010
,
1000
1000
0001
0001
,
0010
0000
0010
0000
0100
0000
0100
0001
,
0020
0000
0000
0030
0200
0000
0000
0300
,
0001
0010
0100
1000
,
0100
1000
0100
0010
,
0001
0010
0100
1000
,
1001
0000
0000
0001
,
0010
0100
1000
0100
,
0010
0000
0000
0010
,
0001
0010
0100
0010
,
1000
0000
0000
1000
,
0001
0010
0100
0010
,
1000
0000
0000
0100
,
0010
0100
0000
1000
0000
0100
0000
0000
,
0010
0100
0000
1000
0000
0100
0000
0000
,
0010
0100
0010
0100
,
0001
1000
0001
1000
0001
1000
0001
1000
,
0001
0000
0000
1001
0000
0000
0000
0000
;

//---------------dance-single - ----------------
#NOTES:
     dance-single:
     :
     Challenge:
     15:
     1.000,1.000,1.000,0.000,1.000,1323.000,294.000,0.000,0.000,0.000:
0000
0000
0000
0000
0000
0000
0000
0000
0010
0100
1000
0000
0010
0000
0000
0000
,
1001
0010
1000
0010
1100
0010
1001
0100
,
1000
0000
0010
0000
1000
0000
0010
0000
1100
0001
0010
0000
1001
0000
0100
0001
,
1000
0010
1000
0010
1100
0010
1001
0100
,
1001
0000
0001
0000
1010
0000
0010
0000
1100
0001
0100
0000
1010
0000
1010
0000
,
1001
0010
1000
0010
1100
0010
1001
0100
,
1000
0000
0010
0000
1000
0000
0010
0000
1100
0001
0010
0000
1001
0000
0100
0001
,
1000
0010
1000
0010
1100
0010
1100
1001
,
0000
0000
0001
0000
0010
0000
0010
0000
0101
0010
0100
0001
1010
0000
0100
0010
,
1001
0100
0010
0001
1100
0010
0100
1000
0011
1000
0010
0100
1001
0010
0100
0001
,
1010
0100
0010
0001
1100
0010
0100
0001
0110
1000
0100
0010
1001
0100
0010
0001
,
1100
0010
0100
1000
0011
0100
0010
1000
0101
0010
0100
0001
1010
0100
0010
0001
,
1100
0010
0100
1000
0011
0100
0010
0001
0110
1000
0001
0100
1001
0010
0101
0010
,
1001
0100
0010
1000
0101
0010
0100
0001
0110
1000
0100
0010
1100
0001
0010
0100
,
1001
0010
0100
1000
0011
0100
0010
1000
0101
0010
1000
0001
1010
0100
0001
1000
,
0011
0100
1000
0010
0101
1000
0100
0010
1001
0100
0010
0001
0110
1000
0100
0010
,
1001
0010
0100
0001
1010
0100
0010
1000
0101
0010
1000
0100
1001
0010
0101
0010
,
1001
0010
0100
0001
1010
0100
0010
1000
0101
0010
1000
0100
1001
0010
0101
0010
,
1001
0100
1010
0001
1100
0010
0101
1000
0110
1001
0110
0001
1100
0010
0101
1000
,
0101
1010
0101
0010
1001
0100
1010
0001
1100
0011
1100
0010
0101
1000
0011
0100
,
1001
0010
0100
0001
0010
0001
1000
0010
0100
0001
1000
0100
1000
0010
0100
0001
,
1000
0010
0100
0001
0010
0001
1000
0010
0100
0001
0010
0100
1000
0010
0100
0001
,
1000
0100
0010
0001
0100
0010
1000
0001
0100
0010
1000
0001
1000
0100
0010
0001
,
1000
0010
0100
0001
0010
0001
0100
0010
1000
0100
0010
0001
1000
0010
0100
0001
,
1000
0001
0100
0001
0010
0001
1000
0010
0100
0010
0001
0010
0100
0001
0010
0100
,
1000
0010
0100
0001
0010
0001
1000
0010
0100
0001
0010
0100
1000
0010
0100
0001
,
0010
0100
1000
0001
0100
0010
1000
0100
0010
0001
0100
0010
1000
0001
0010
0100
,
1000
0010
0100
0001
0010
0100
1000
0001
0100
0010
1000
0100
1001
0010
0100
0010
,
0101
1000
0100
0010
0001
0100
0010
1000
0001
0010
0001
0100
1001
0010
0100
0001
,
1100
0010
0100
0001
0110
1000
0100
0010
1001
0100
0010
0001
1010
0100
0010
0001
,
1100
0001
0100
0010
1000
0100
0010
0001
1000
0010
0100
0001
0110
1000
0001
0100
,
1001
0010
0100
0001
0110
1000
0100
0010
1100
0001
0010
0100
0011
1000
0010
0100
,
1001
0010
0100
0001
1000
0100
0010
0100
1000
0010
0100
0001
1010
0100
0001
1000
,
0011
0100
0010
1000
0101
0010
1000
0100
1001
0010
0100
0001
1010
0100
0010
0001
,
1100
0010
0100
0010
1000
0001
0010
0100
1000
0010
0100
0001
1100
0010
0100
0001
,
0110
1000
0101
0010
1000
0001
0110
1000
0100
0010
1001
0100
0010
0001
0100
0010
,
0000
0000
0000
0000
0000
0000
0000
0000
0010
0100
1000
0000
0010
0000
0000
0000
,
1001
0100
0010
0001
1100
0001
0100
0010
1001
0100
0010
1000
0101
1000
0010
0100
,
1001
0010
0100
1000
0011
1000
0001
0100
1001
0010
1000
0001
1100
0010
0100
0001
,
1010
0100
0010
0001
1100
0010
0100
1000
0011
0100
0010
1000
0101
0010
0100
0001
,
1010
0100
0010
0001
1100
0010
0100
0001
1010
0001
0010
0100
1001
0010
0100
1000
,
0110
0001
1000
0010
0101
1000
0010
0100
1001
0010
0100
0001
1010
0100
0001
1000
,
0011
0100
0010
0001
1100
0010
0100
0001
1010
0001
0010
0100
1001
0010
0100
1000
,
0110
0001
1000
0010
1001
0100
0001
1000
0110
0001
1000
0010
0101
1000
0010
0100
,
1001
0010
0100
0001
1100
0010
0100
1000
0011
0100
0010
1000
0101
0010
0100
0001
,
1100
0010
0100
0001
0010
0100
1000
0001
0100
0010
1000
0100
0011
0100
1000
0001
,
1100
0010
0100
1000
0011
0100
0010
0001
0110
1000
0001
0010
1100
0001
0100
0010
,
1001
0100
0010
0001
0100
0010
1000
0001
0010
0100
1000
0010
0101
1000
0100
0010
,
1001
0010
0100
0001
1010
0001
0010
0100
1001
0010
0100
0001
1010
0100
0010
0001
,
1100
0010
0100
0001
0010
0100
1000
0010
0100
0001
1000
0100
1010
0001
0100
0010
,
1001
0010
0100
0001
1010
0001
0100
0010
1001
0100
0010
0001
1100
0010
0100
0001
,
1010
0001
0100
0001
1000
0001
0010
0100
1000
0010
1000
0001
0110
1000
0100
0010
,
1001
0100
1010
0001
0100
0010
1001
0100
0010
0001
1100
0010
0100
0001
0010
0100
,
1001
0010
0100
0001
1010
0001
0100
0010
1001
0100
0010
0001
1010
0100
0010
0001
,
1000
0010
0100
0001
1100
0010
0100
0001
1010
0100
0010
0001
1100
0010
0100
0001
,
0010
0100
1000
0010
0101
1000
0100
0010
1001
0010
0100
0001
1010
0100
1001
0010
,
0100
1000
0011
0100
1001
0010
0100
0001
1010
0100
1001
0010
0100
1000
0011
1000
,
0100
0010
0001
0100
1010
0001
0100
0010
1001
0100
0010
1000
0101
1000
0010
0100
,
0001
0010
0100
1000
0011
0100
0010
0001
1100
0010
0100
0001
1010
0100
1001
0010
,
0100
0001
1010
0100
1001
0010
0100
1000
0011
0100
0010
1000
0101
0010
1000
0100
,
1001
0010
0001
0100
1010
0001
0010
0100
1001
0010
0100
1000
0011
0100
0001
0010
,
1001
0100
0010
0001
1100
0010
0100
1000
0011
0100
0010
1000
0101
0010
0100
1000
,
0010
0100
0001
0010
1100
0001
0010
0100
1001
0010
0100
1000
0011
0100
1000
0010
,
0100
0001
0010
0100
1001
0010
0100
0001
1010
0100
0010
1000
0110
0001
1010
0100
,
0010
1000
0101
0010
1001
0100
0001
1000
0011
0100
1001
0010
0100
0001
1010
0001
,
0010
0100
1000
0010
0101
1000
0010
0100
1001
0010
0100
0001
1010
0100
0010
1000
,
0100
0010
0100
1000
0011
0100
1000
0001
0110
1000
0001
0100
1010
0001
0010
0100
,
1000
0010
0100
0001
1010
0001
0100
0010
1001
0100
0010
1000
0101
0010
1000
0001
,
0100
0010
1000
0100
0011
1000
0100
0010
1001
0100
0010
0001
1100
0010
0100
0001
,
1010
0100
0010
0001
1100
0010
0100
1000
0011
0100
0010
0001
1010
0001
0100
0010
,
1001
0100
0010
1000
0101
0010
1000
0001
1100
0010
0100
1000
0110
0001
1000
0010
,
1001
0100
0010
1000
0101
0010
0100
0001
1010
0001
0010
0100
1001
0010
0100
1000
,
0011
0000
0000
0100
0000
0000
0010
0000
0000
0001
0000
0000
1100
0000
0000
0010
0000
0000
0100
0000
0000
0001
0000
0000
1010
0000
0000
0001
0000
0000
0010
0000
0000
0100
0000
0000
1001
0000
0000
0100
0010
0000
0001
0000
0100
0010
0000
0000
,
1001
0100
0010
0001
0100
0010
0100
0001
1100
0010
0100
0001
0010
0100
1000
0010
,
0101
1000
0100
0010
1001
0100
0010
0001
1100
0010
0100
0001
1010
0100
0010
1000
,
0101
0010
1000
0001
1100
0010
0100
0001
0110
1000
0100
0010
1001
0100
0010
0001
,
1010
0001
0100
0010
1001
0010
0100
0001
1100
0010
1001
0100
0010
1000
0101
0010
,
1001
0100
0010
0001
1100
0010
0100
0001
1010
0001
0100
0010
1001
0100
0010
1000
,
0101
0010
0100
0001
0110
1000
0100
0010
1001
0100
0010
0001
1100
0010
0100
0001
,
0110
1000
0100
0010
1001
0100
0010
0001
1100
0010
0100
0001
1010
0001
0100
0010
,
1001
0100
0010
1000
0011
1000
0100
0010
1001
0100
0010
0001
0110
1000
0100
0010
,
1001
0100
0010
0001
0100
0010
1000
0001
0010
0001
0100
0010
1001
0100
0010
1000
,
0101
0010
0100
0001
0110
1000
0100
0010
1001
0100
0010
0001
1100
0010
0100
0001
,
1010
0100
0010
0001
1000
0010
0100
0001
0010
0100
1000
0001
0110
1000
0100
0010
,
1001
0000
0110
0000
1000
0000
0110
0000
1000
0000
0101
0000
1000
0100
1000
0100
,
1001
1010
1000
1100
1000
1010
1000
1000
,
1001
0100
1010
0100
1001
0100
1010
0100
1001
0010
1100
0001
0110
1000
0011
0100
,
1010
0001
1000
0001
1000
0001
1000
0001
1000
0001
1000
0001
1000
0001
1000
0001
,
1000
0100
0010
0001
0100
0010
0100
1001
0000
0000
0000
0000
0000
0000
0000
0000
;
